Survivor 2015 BluRay 1080p Dual Audio [Hindi DDP 5.1 + English DD...

seeders: 9
leechers: 6
updated:
Added by mkvCinemas in Other


ᕦ( ▨̅ ͜▨̅ )ᕥ SPECIAL DEAL - OFFER ᕦ( ▨̅ ͜▨̅ )ᕥ
strongly advises you to use Nord while downloading torrents.
Nord is the safest on the market, and the fastest as well.
No IP Log is saved using Nord, avoid other providers and choose the safest one.
Click here and buy Nord it's on rebates today!
We were able to verify your IP: 3.214.224.224, country: United States.
If we can do that, others can too, protect your privacy with Nord.
is trying the best for you!
ᕦ( ▨̅ ͜▨̅ )ᕥ SPECIAL DEAL - OFFER ᕦ( ▨̅ ͜▨̅ )ᕥ


Description

 

 

 

********************************

 Survivor 2015 BluRay 1080p Dual Audio [Hindi DDP 5.1 + English DD 5.1] x264 ESub - mkvCinemas [Telly]  

********************************

Mediainfo:- 
Format : Matroska
Format version : Version 2
File size : 3.09 GiB
Duration : 1h 36mn
Overall bit rate mode : Variable
Overall bit rate : 4 591 Kbps

Video
ID : 1
Format : AVC
Format/Info : Advanced Video Codec
Format profile : [email protected] 
Format settings, CABAC : Yes
Format settings, ReFrames : 4 frames
Muxing mode : Header stripping
Codec ID : V_MPEG4/ISO/AVC
Duration : 1h 36mn
Bit rate mode : Variable
Bit rate : 3 500 Kbps
Maximum bit rate : 62.5 Mbps
Width : 1 916 pixels
Height : 804 pixels
Display aspect ratio : 2.40:1
Original display aspect rat : 2.40:1
Frame rate mode : Constant
Frame rate : 23.976 fps
Color space : YUV

Audio #1
ID : 2
Format : E-AC-3
Format/Info : Audio Coding 3
Format settings, Endianness : Big
Muxing mode : Header stripping
Codec ID : A_EAC3
Duration : 1h 36mn
Bit rate mode : Constant
Bit rate : 640 Kbps
Channel(s) : 6 channels
Channel positions : Front: L C R, Side: L R, LFE
Sampling rate : 48.0 KHz
Compression mode : Lossy
Delay relative to video : 16ms
Stream size : 442 MiB (14%)
Title : mkvCinemas
Language : Hindi
Default : Yes
Forced : No

Audio #2
ID : 3
Format : AC-3
Format/Info : Audio Coding 3
Mode extension : CM (complete main)
Format settings, Endianness : Big
Muxing mode : Header stripping
Codec ID : A_AC3
Duration : 1h 36mn
Bit rate mode : Constant
Bit rate : 448 Kbps
Channel(s) : 6 channels
Channel positions : Front: L C R, Side: L R, LFE
Sampling rate : 48.0 KHz
Bit depth : 16 bits
Compression mode : Lossy
Stream size : 309 MiB (10%)
Title : mkvCinemas
Language : English
Default : No
Forced : No

Text
ID : 4
Format : VobSub
Muxing mode : zlib
Codec ID : S_VOBSUB
Codec ID/Info : The same subtitle format used on DVDs
Title : mkvCinemas
Language : English
Default : Yes
Forced : No

Menu
00:00:00.000 : en:00:00:00.000
00:07:14.559 : en:00:07:14.559
00:16:04.672 : en:00:16:04.672
00:24:17.581 : en:00:24:17.581
00:32:13.890 : en:00:32:13.890
00:39:44.299 : en:00:39:44.299
00:47:37.480 : en:00:47:37.480
00:56:07.030 : en:00:56:07.030
01:03:35.186 : en:01:03:35.186
01:11:51.265 : en:01:11:51.265
01:19:03.489 : en:01:19:03.489
01:27:43.258 : en:01:27:43.258

  

********************************

We don't add Watermark or Audio Tags.
Wherever you Share our Stuffs, Give Proper Credit to "mkvCinemas @Team Telly"
We Keep All Torrents. In case of re-seed, please pm.  

********************************

 
 
 
 
 

********************************

 

********************************

Sharing Widget


Download torrent
Size: 3.1 GB
seeders:9
leechers:6
Survivor 2015 BluRay 1080p Dual Audio [Hindi DDP 5.1 + English DD... - (3328599654 Bytes)



To share this torrent use the code below and insert it into comments, status messages, forum posts or your signature.

Torrent: Survivor 2015 BluRay 1080p Dual Audio [Hindi DDP 5.1 + English DD...

Trackers

tracker name
udp://tracker.coppersurfer.tk:6969/announce
udp://tracker.opentrackr.org:1337/announce
http://tracker3.itzmx.com:6961/announce
http://tracker1.itzmx.com:8080/announce
udp://p4p.arenabg.com:1337
udp://bt.firebit.co.uk:6969/announce
udp://tracker.leechers-paradise.org:6969/announce
udp://open.demonii.si:1337/announce
udp://tracker.tiny-vps.com:6969/announce
udp://thetracker.org:80/announce
udp://open.stealth.si:80/announce
udp://9.rarbg.com:2710/announce
udp://9.rarbg.me:2730/announce
udp://tracker.internetwarriors.net:1337/announce
udp://tracker.zer0day.to:1337/announce
udp://tracker.leechers-paradise.org:6969/announce
udp://coppersurfer.tk:6969/announce
µTorrent compatible trackers list

Locations

name
KickassTorrents
Torrent hash: 1B55DAE3DED5F59963A17658A0B18D794796D74B

ᕦ( ▨̅ ͜▨̅ )ᕥ SPECIAL DEAL - OFFER ᕦ( ▨̅ ͜▨̅ )ᕥ
strongly advises you to use Nord while downloading torrents.
Nord is the safest on the market, and the fastest as well.
No IP Log is saved using Nord, avoid other providers and choose the safest one.
Click here and buy Nord it's on rebates today!
We were able to verify your IP: 3.214.224.224, country: United States.
If we can do that, others can too, protect your privacy with Nord.
is trying the best for you!
ᕦ( ▨̅ ͜▨̅ )ᕥ SPECIAL DEAL - OFFER ᕦ( ▨̅ ͜▨̅ )ᕥ

All Comments

*comments box temporarily disabled*
Report a bug